Алексей Смирнов | The Silence of the Lambs | Bukalapak - Jual Beli Online APK
extratorrent - A Fan Made Alternative Login   |   Register
Important Information
Registrations are open now
-------------------------------------

Please click here to register with Extratorrent2 to recieve latest updates, add bookmarks and to post comments.

Friends
Friends

1) Filebebo
-------------------------------------
2) MoviesDig
-------------------------------------
3) Torrentz2.cc
-------------------------------------
4) Torrents.me

Extratorrent2 > Categories > Movies > Kong.Skull.Island.2017.iTALiAN.DTS.HDMA.2160p.UHD.BluRay.x265-DENiED.mkv torrent


Browse Movies torrents

Kong.Skull.Island.2017.iTALiAN.DTS.HDMA.2160p.UHD.BluRay.x265-DENiED.mkv torrent


Download torrent: Download Kong.Skull.Island.2017.iTALiAN.DTS.HDMA.2160p.UHD.BluRay.x265-DENiED.mkv torrent Magnet link Bookmark Torrent: Kong.Skull.Island.2017.iTALiAN.DTS.HDMA.2160p.UHD.BluRay.x265-DENiED.mkv   Kong.Skull.Island.2017.iTALiAN.DTS.HDMA.2160p.UHD.BluRay.x265-DENiED.mkv torrent
Info hash: B08FD8B082C27FED53A344B52F1BEE46394EDB0B
Category: Categories > Movies
Trackers:
View all torrent trackers >
Health:
 seeds: 15 ,  leechers: 12 |  Update >
Torrent language: English English
Total Size: 19.6 GB
Files List:
1    View torrent files >
Uploader:
eXpOrTeRICV
Torrent added: February 7, 2018, 4:44 am
Users rating: ---, not rated. please login to rate.

Download Kong.Skull.Island.2017.iTALiAN.DTS.HDMA.2160p.UHD.BluRay.x265-DENiED.mkv torrent



Torrent Description





[size=24pt]Kong: Skull Island [/size]





DATA USCITA: 09 marzo 2017
GENERE: Avventura, Azione, Fantasy
ANNO: 2017
REGIA: Jordan Vogt-Roberts
ATTORI: Tom Hiddleston, Brie Larson, Samuel L. Jackson, John Goodman, John C. Reilly, Corey Hawkins, Toby Kebbell, Jason Mitchell, Shea Whigham, John Ortiz, Tian Jing, Thomas Mann, Eugene Cordero, Marc Evan Jackson, Will Brittain, Miyavi, Richard Jenkins
PAESE: USA
DURATA: 118 Min
FORMATO: 2D e 3D
DISTRIBUZIONE: Warner Bros.




Kong: Skull Island è un film di genere avventura, azione, fantasy del 2017, diretto da Jordan Vogt-Roberts, con Tom Hiddleston e Brie Larson. Uscita al cinema il 09 marzo 2017. Durata 118 minuti. Distribuito da Warner Bros..

Nel film, un gruppo eterogeneo di scienziati, soldati ed esploratori si avventura nelle profondità di una mitica e sperduta isola del Pacifico, tanto pericolosa quanto affascinante. Al di là di ogni loro aspettativa, la squadra procede inconsapevole di entrare nel dominio del potente Kong, innescando la battaglia finale tra uomo e natura. Nel momento in cui la loro missione di scoperta diventa una lotta per la sopravvivenza, dovranno combattere per sfuggire da un Paradiso primordiale dove gli uomini non sono contemplati.










[spoiler]General


Complete name : Kong.Skull.Island.2017.iTALiAN.DTS.HDMA.2160p.UHD.BluRay.x265-DENiED.mkv
Format : Matroska
Format version : Version 4 / Version 2
File size : 19.6 GiB
Duration : 1 h 58 min
Overall bit rate mode : Variable
Overall bit rate : 23.7 Mb/s
Movie name : Kong.Skull.Island.2017.iTALiAN.DTS.HDMA.2160p.UHD.BluRay.x265-DENiED
Encoded date : UTC 2018-01-30 16:23:35
Writing application : mkvmerge v20.0.0 ('I Am The Sun') 64-bit
Writing library : libebml v1.3.5 + libmatroska v1.4.8
Attachments : Kong.jpg


Video
ID : 1
Format : HEVC
Format/Info : High Efficiency Video Coding
Format profile : Main @High
Codec ID : V_MPEGH/ISO/HEVC
Duration : 1 h 58 min
Bit rate : 15.9 Mb/s
Width : 3 840 pixels
Height : 1 600 pixels
Display aspect ratio : 2.40:1
Frame rate mode : Constant
Frame rate : 23.976 (24000/1001) FPS
Color space : YUV
Chroma subsampling : 4:2:0 (Type 2)
Bit depth : 10 bits
Bits/(Pixel*Frame) : 0.108
Stream size : 13.1 GiB (67%)
Title : 2160p
Writing library : x265 2.6+4-f7498acb3874:[Windows][GCC 7.2.0][64 bit] 10bit
Encoding settings : cpuid=1173503 / frame-threads=4 / numa-pools=16 / wpp / no-pmode / no-pme / no-psnr / no-ssim / log-level=2 / input-csp=1 / input-res=3840x1600 / interlace=0 / total-frames=170382 / level-idc=51 / high-tier=1 / uhd-bd=0 / ref=4 / no-allow-non-conformance / repeat-headers / annexb / aud / hrd / info / hash=0 / no-temporal-layers / no-open-gop / min-keyint=24 / keyint=240 / bframes=4 / b-adapt=2 / b-pyramid / bframe-bias=0 / rc-lookahead=25 / lookahead-slices=4 / scenecut=40 / no-intra-refresh / ctu=64 / min-cu-size=8 / rect / no-amp / max-tu-size=32 / tu-inter-depth=1 / tu-intra-depth=1 / limit-tu=0 / rdoq-level=2 / dynamic-rd=0.00 / no-ssim-rd / signhide / no-tskip / nr-intra=0 / nr-inter=0 / no-constrained-intra / no-strong-intra-smoothing / max-merge=3 / limit-refs=3 / limit-modes / me=3 / subme=3 / merange=57 / temporal-mvp / weightp / no-weightb / no-analyze-src-pics / deblock=-3:-3 / no-sao / no-sao-non-deblock / rd=4 / no-early-skip / rskip / no-fast-intra / no-tskip-fast / no-cu-lossless / no-b-intra / no-splitrd-skip / rdpenalty=0 / psy-rd=2.00 / psy-rdoq=1.00 / no-rd-refine / analysis-reuse-mode=0 / no-lossless / cbqpoffs=0 / crqpoffs=0 / rc=crf / crf=17.0 / qcomp=0.60 / qpstep=4 / stats-write=0 / stats-read=0 / vbv-maxrate=160000 / vbv-bufsize=160000 / vbv-init=0.9 / crf-max=0.0 / crf-min=0.0 / ipratio=1.40 / pbratio=1.30 / aq-mode=1 / aq-strength=1.00 / cutree / zone-count=0 / no-strict-cbr / qg-size=32 / no-rc-grain / qpmax=69 / qpmin=0 / no-const-vbv / sar=1 / overscan=0 / videoformat=5 / range=0 / colorprim=9 / transfer=16 / colormatrix=9 / chromaloc=1 / chromaloc-top=2 / chromaloc-bottom=2 / display-window=0 / master-display=G(13250,34500)B(7500,3000)R(34000,16000)WP(15635,16450)L(40000000,50) / max-cll=456,151 / min-luma=0 / max-luma=1023 / log2-max-poc-lsb=8 / vui-timing-info / vui-hrd-info / slices=1 / opt-qp-pps / opt-ref-list-length-pps / no-multi-pass-opt-rps / scenecut-bias=0.05 / no-opt-cu-delta-qp / no-aq-motion / hdr / hdr-opt / no-dhdr10-opt / analysis-reuse-level=5 / scale-factor=0 / refine-intra=0 / refine-inter=0 / refine-mv=0 / no-limit-sao / ctu-info=0 / no-lowpass-dct / refine-mv-type=0 / copy-pic=1
Default : Yes
Forced : No
Color range : Limited
Color primaries : BT.2020
Transfer characteristics : PQ
Matrix coefficients : BT.2020 non-constant
Mastering display color pri : R: x=0.680000 y=0.320000, G: x=0.265000 y=0.690000, B: x=0.150000 y=0.060000, White point: x=0.312700 y=0.329000
Mastering display luminance : min: 0.0050 cd/m2, max: 4000.0000 cd/m2
Maximum Content Light Level : 456 cd/m2
Maximum Frame-Average Light : 151 cd/m2


Audio #1
ID : 2
Format : DTS
Format/Info : Digital Theater Systems
Format profile : MA / Core
Codec ID : A_DTS
Duration : 1 h 58 min
Bit rate mode : Variable / Constant
Bit rate : 2 414 kb/s / 1 509 kb/s
Channel(s) : 6 channels
Channel positions : Front: L C R, Side: L R, LFE
Sampling rate : 48.0 kHz
Frame rate : 93.750 FPS (512 SPF)
Bit depth : 16 bits
Compression mode : Lossless / Lossy
Stream size : 2.00 GiB (10%)
Title : DTS-HD
Language : Italian
Default : Yes
Forced : No


Audio #2
ID : 3
Format : AC-3
Format/Info : Audio Coding 3
Codec ID : A_AC3
Duration : 1 h 58 min
Bit rate mode : Constant
Bit rate : 640 kb/s
Channel(s) : 6 channels
Channel positions : Front: L C R, Side: L R, LFE
Sampling rate : 48.0 kHz
Frame rate : 31.250 FPS (1536 SPF)
Bit depth : 16 bits
Compression mode : Lossy
Stream size : 542 MiB (3%)
Title : DD5.1
Language : Italian
Service kind : Complete Main
Default : No
Forced : No


Audio #3
ID : 4
Format : TrueHD
Format profile : TrueHD+Atmos / TrueHD
Codec ID : A_TRUEHD
Duration : 1 h 58 min
Bit rate mode : Variable
Bit rate : 4 218 kb/s
Maximum bit rate : 6 912 kb/s
Channel(s) : Object Based / 8 channels
Channel positions : Object Based / Front: L C R, Side: L R, Back: L R, LFE
Sampling rate : / 48.0 kHz
Frame rate : 1 200.000 FPS (40 SPF)
Compression mode : Lossless
Stream size : 3.49 GiB (18%)
Title : TrueH
Language : English
Default : No
Forced : No


Audio #4
ID : 5
Format : AC-3
Format/Info : Audio Coding 3
Codec ID : A_AC3
Duration : 1 h 58 min
Bit rate mode : Constant
Bit rate : 448 kb/s
Channel(s) : 6 channels
Channel positions : Front: L C R, Side: L R, LFE
Sampling rate : 48.0 kHz
Frame rate : 31.250 FPS (1536 SPF)
Bit depth : 16 bits
Compression mode : Lossy
Stream size : 380 MiB (2%)
Title : DD5.1
Language : English
Service kind : Complete Main
Default : No
Forced : No


Text #1
ID : 6
Format : UTF-8
Codec ID : S_TEXT/UTF8
Codec ID/Info : UTF-8 Plain Text
Duration : 1 h 57 min
Bit rate : 0 b/s
Count of elements : 24
Stream size : 621 Bytes (0%)
Title : FORCED
Language : Italian
Default : Yes
Forced : Yes


Text #2
ID : 7
Format : UTF-8
Codec ID : S_TEXT/UTF8
Codec ID/Info : UTF-8 Plain Text
Duration : 1 h 58 min
Bit rate : 47 b/s
Count of elements : 1525
Stream size : 41.4 KiB (0%)
Title : REGULAR
Language : Italian
Default : No
Forced : No


Text #3
ID : 8
Format : UTF-8
Codec ID : S_TEXT/UTF8
Codec ID/Info : UTF-8 Plain Text
Duration : 1 h 58 min
Bit rate : 53 b/s
Count of elements : 1530
Stream size : 46.5 KiB (0%)
Title : REGULAR
Language : English
Default : No
Forced : No


Menu
00:00:00.000 : en:Chapter 1
00:08:54.742 : en:Chapter 2
00:19:51.773 : en:Chapter 3
00:30:01.132 : en:Chapter 4
00:40:00.106 : en:Chapter 5
00:50:13.260 : en:Chapter 6
01:00:49.729 : en:Chapter 7
01:10:29.600 : en:Chapter 8
01:18:05.889 : en:Chapter 9
01:30:12.657 : en:Chapter 10
01:39:09.026 : en:Chapter 11
01:47:05.836 : en:Chapter 12



ORARIO: SEMPRE ATTIVO
BANDA: 300KB



Download Kong.Skull.Island.2017.iTALiAN.DTS.HDMA.2160p.UHD.BluRay.x265-DENiED.mkv torrent


Related Torrents


Comments   (please login to add your comment!)


Home - Browse Torrents

Made with love by an Extratorrent Fan!