Makio Inoue | Top Film en Torrent | Telenovela
extratorrent - A Fan Made Alternative Login   |   Register
Important Information
Registrations are open now
-------------------------------------

Please click here to register with Extratorrent2 to recieve latest updates, add bookmarks and to post comments.

Friends
Friends

1) Filebebo
-------------------------------------
2) MoviesDig
-------------------------------------
3) Torrentz2.cc
-------------------------------------
4) Torrents.me

Extratorrent2 > Categories > Anime > Tokyo Ghoul-re - 05 (1080p x265 HEVC 10bit AAC 2.0 BugsFunny) [UTR] torrent


Browse Anime torrents

Tokyo Ghoul-re - 05 (1080p x265 HEVC 10bit AAC 2.0 BugsFunny) [UTR] torrent


Download torrent: Download Tokyo Ghoul-re - 05 (1080p x265 HEVC 10bit AAC 2.0 BugsFunny) [UTR] torrent Magnet link Bookmark Torrent: Tokyo Ghoul-re - 05 (1080p x265 HEVC 10bit AAC 2.0 BugsFunny) [UTR]   Tokyo Ghoul-re - 05 (1080p x265 HEVC 10bit AAC 2.0 BugsFunny) [UTR] torrent
Info hash: 35426C53EAADA78031575744BC0EDFE5295AE347
Category: Categories > Anime
Trackers:
View all torrent trackers >
Health:
 seeds: 15 ,  leechers: 4 |  Update >
Torrent language: Japanese Japanese
Total Size: 325.0 MB
Files List:
1    View torrent files >
Uploader:
UTRCorp
Torrent added: May 2, 2018, 9:13 am
Users rating: ---, not rated. please login to rate.

Download Tokyo Ghoul-re - 05 (1080p x265 HEVC 10bit AAC 2.0 BugsFunny) [UTR] torrent



Torrent Description





Media Information

Media Information


Code:

General
Format                                   : Matroska
Format version                           : Version 4 / Version 2
File size                                : 325 MiB
Duration                                 : 24 min 9 s
Overall bit rate                         : 1 880 kb/s
Encoded date                             : UTC 2018-05-01 18:45:30
Writing application                      : mkvmerge v22.0.0 ('At The End Of The World') 64-bit
Writing library                          : libebml v1.3.5 + libmatroska v1.4.8
Writing frontend                         : StaxRip v1.7.0.5

Video
ID                                       : 1
Format                                   : HEVC
Format/Info                              : High Efficiency Video Coding
Format profile                           : Main @Main
Codec ID                                 : V_MPEGH/ISO/HEVC
Duration                                 : 24 min 9 s
Bit rate                                 : 1 644 kb/s
Width                                    : 1 920 pixels
Height                                   : 1 080 pixels
Display aspect ratio                     : 16:9
Frame rate mode                          : Constant
Frame rate                               : 23.976 (24000/1001) FPS
Color space                              : YUV
Chroma subsampling                       : 4:2:0
Bit depth                                : 10 bits
Bits/(Pixel*Frame)                       : 0.033
Stream size                              : 284 MiB (87%)
Writing library                          : x265 2.7+17-2e370d98c806:[Windows][GCC 8.0.1][64 bit] 10bit
Encoding settings                        : cpuid=1173503 / frame-threads=3 / numa-pools=8 / wpp / no-pmode / no-pme / no-psnr / no-ssim / log-level=2 / input-csp=1 / input-res=1920x1080 / interlace=0 / total-frames=34755 / level-idc=0 / high-tier=1 / uhd-bd=0 / ref=4 / no-allow-non-conformance / no-repeat-headers / annexb / no-aud / no-hrd / info / hash=0 / no-temporal-layers / open-gop / min-keyint=23 / keyint=250 / gop-lookahead=0 / bframes=4 / b-adapt=2 / b-pyramid / bframe-bias=0 / rc-lookahead=30 / lookahead-slices=4 / scenecut=40 / radl=0 / no-intra-refresh / ctu=32 / min-cu-size=8 / no-rect / no-amp / max-tu-size=16 / tu-inter-depth=2 / tu-intra-depth=2 / limit-tu=0 / rdoq-level=2 / dynamic-rd=0.00 / no-ssim-rd / signhide / no-tskip / nr-intra=0 / nr-inter=0 / no-constrained-intra / strong-intra-smoothing / max-merge=3 / limit-refs=3 / limit-modes / me=3 / subme=5 / merange=92 / temporal-mvp / weightp / no-weightb / no-analyze-src-pics / deblock=1:1 / sao / no-sao-non-deblock / rd=4 / no-early-skip / rskip / no-fast-intra / no-tskip-fast / no-cu-lossless / no-b-intra / no-splitrd-skip / rdpenalty=0 / psy-rd=2.00 / psy-rdoq=5.00 / no-rd-refine / no-lossless / cbqpoffs=0 / crqpoffs=0 / rc=crf / crf=21.5 / qcomp=0.60 / qpstep=4 / stats-write=0 / stats-read=0 / ipratio=1.40 / pbratio=1.30 / aq-mode=3 / aq-strength=1.00 / cutree / zone-count=0 / no-strict-cbr / qg-size=32 / no-rc-grain / qpmax=69 / qpmin=0 / no-const-vbv / sar=0 / overscan=0 / videoformat=5 / range=0 / colorprim=2 / transfer=2 / colormatrix=2 / chromaloc=0 / display-window=0 / max-cll=0,0 / min-luma=0 / max-luma=1023 / log2-max-poc-lsb=8 / vui-timing-info / vui-hrd-info / slices=1 / no-opt-qp-pps / no-opt-ref-list-length-pps / no-multi-pass-opt-rps / scenecut-bias=0.05 / no-opt-cu-delta-qp / aq-motion / no-hdr / no-hdr-opt / no-dhdr10-opt / no-idr-recovery-sei / analysis-reuse-level=5 / scale-factor=0 / refine-intra=0 / refine-inter=0 / refine-mv=0 / no-limit-sao / ctu-info=0 / no-lowpass-dct / refine-mv-type=0 / copy-pic=1 / max-ausize-factor=1.0 / no-dynamic-refine
Default                                  : Yes
Forced                                   : No

Audio
ID                                       : 2
Format                                   : AAC
Format/Info                              : Advanced Audio Codec
Format profile                           : LC
Codec ID                                 : A_AAC
Duration                                 : 24 min 9 s
Bit rate                                 : 158 kb/s
Channel(s)                               : 2 channels
Channel positions                        : Front: L R
Sampling rate                            : 48.0 kHz
Frame rate                               : 46.875 FPS (1024 spf)
Compression mode                         : Lossy
Delay relative to video                  : 20 ms
Stream size                              : 27.4 MiB (8%)
Language                                 : Japanese
Default                                  : Yes
Forced                                   : No

Subtitle #1
ID                                       : 3
Format                                   : ASS
Codec ID                                 : S_TEXT/ASS
Codec ID/Info                            : Advanced Sub Station Alpha
Duration                                 : 23 min 50 s
Bit rate                                 : 75 b/s
Count of elements                        : 270
Compression mode                         : Lossless
Stream size                              : 13.3 KiB (0%)
Title                                    : English Subs
Language                                 : English
Default                                  : Yes
Forced                                   : No

Subtitle #2
ID                                       : 4
Format                                   : ASS
Codec ID                                 : S_TEXT/ASS
Codec ID/Info                            : Advanced Sub Station Alpha
Duration                                 : 22 min 55 s
Bit rate                                 : 70.4 kb/s
Count of elements                        : 41238
Compression mode                         : Lossless
Stream size                              : 11.5 MiB (4%)
Title                                    : SIGNS&SONGS
Default                                  : No
Forced                                   : No

Subtitle #3
ID                                       : 5
Format                                   : ASS
Codec ID                                 : S_TEXT/ASS
Codec ID/Info                            : Advanced Sub Station Alpha
Duration                                 : 20 min 40 s
Bit rate                                 : 1 b/s
Count of elements                        : 4
Compression mode                         : Lossless
Stream size                              : 171 Bytes (0%)
Title                                    : SIGNS only
Default                                  : No
Forced                                   : No



Source Information


Code:

Release:
[Erai-raws] Tokyo Ghoul-re - 05 [1080p].mkv (1.35 GBs)







Note From UTR
We have no issue with individuals posting or re-uploading our torrents on a platform we aren't on. However, if this is something you'd like to do, please do so in a 'as-is' format. We ask that you do not create a new torrent, include all descriptions you see above including the UTR logo, tags, notes and screenshots. If you'd like to become a permanent poster on a website we don't post to, feel free to get in contact with a UniTeam member.

If possible please donate: BTC 1QA5fum5AyXvWzdVCkQzUNvw3Ef15fHRaR


Download Tokyo Ghoul-re - 05 (1080p x265 HEVC 10bit AAC 2.0 BugsFunny) [UTR] torrent




Comments   (please login to add your comment!)


Home - Browse Torrents

Made with love by an Extratorrent Fan!