Watch movie | God of Martial Arts: chapter 2.3 | Buddha Cafe
extratorrent - A Fan Made Alternative Login   |   Register
Important Information
Registrations are open now
-------------------------------------

Please click here to register with Extratorrent2 to recieve latest updates, add bookmarks and to post comments.

Friends
Friends

1) Filebebo
-------------------------------------
2) MoviesDig
-------------------------------------
3) Torrentz2.cc
-------------------------------------
4) Torrents.me

Extratorrent2 > Categories > Movies > Terminal 2018 1080p WEB-DL DD 5.1 x264 [MW] torrent


Browse Movies torrents

Terminal 2018 1080p WEB-DL DD 5.1 x264 [MW] torrent


Download torrent: Download Terminal 2018 1080p WEB-DL DD 5.1 x264 [MW] torrent Magnet link Bookmark Torrent: Terminal 2018 1080p WEB-DL DD 5.1 x264 [MW]   Terminal 2018 1080p WEB-DL DD 5.1 x264 [MW] torrent
Info hash: 06176D4A9AFD7FF3BB3A0471BF8F9581AC25DD9B
Category: Categories > Movies
Trackers:
View all torrent trackers >
Health:
 seeds: 130 ,  leechers: 67 |  Update >
Torrent language: English English
Total Size: 1.6 GB
Files List:
1    View torrent files >
Uploader:
moviezworldz
Torrent added: May 12, 2018, 5:30 pm
Tags: Crime, Drama, Thriller
Users rating: ---, not rated. please login to rate.

Download Terminal 2018 1080p WEB-DL DD 5.1 x264 [MW] torrent



Torrent Description






General
Format : Matroska
Format version : Version 4 / Version 2
File size : 1.56 GiB
Duration : 1 h 35 min
Overall bit rate : 2 344 kb/s

Video
ID : 1
Format : AVC
Format/Info : Advanced Video Codec
Format profile :
Format settings : CABAC / 4 Ref Frames
Format settings, CABAC : Yes
Format settings, RefFrames : 4 frames
Codec ID : V_MPEG4/ISO/AVC
Duration : 1 h 35 min
Bit rate : 2 000 kb/s
Width : 1 912 pixels
Height : 1 072 pixels
Display aspect ratio : 16:9
Frame rate mode : Constant
Frame rate : 23.976 (24000/1001) FPS
Color space : YUV
Chroma subsampling : 4:2:0
Bit depth : 8 bits
Scan type : Progressive
Bits/(Pixel*Frame) : 0.041
Stream size : 1.31 GiB (84%)
Writing library : x264 core 155 r2893 b00bcaf
Default : Yes
Forced : No

Audio
ID : 2
Format : AC-3
Format/Info : Audio Coding 3
Codec ID : A_AC3
Duration : 1 h 35 min
Bit rate mode : Constant
Bit rate : 384 kb/s
Channel(s) : 6 channels
Channel positions : Front: L C R, Side: L R, LFE
Sampling rate : 48.0 kHz
Frame rate : 31.250 FPS (1536 SPF)
Bit depth : 16 bits
Compression mode : Lossy
Stream size : 262 MiB (16%)
Service kind : Complete Main
Default : Yes
Forced : No

Menu
00:00:00.000 : en:1
00:09:49.756 : en:2
00:21:31.624 : en:3
00:34:19.099 : en:4
00:44:03.933 : en:5
00:58:29.131 : en:6
01:11:17.148 : en:7
01:21:53.700 : en:8
01:32:33.923 : en:9














Download Terminal 2018 1080p WEB-DL DD 5.1 x264 [MW] torrent


Related Torrents


Comments   (please login to add your comment!)


Home - Browse Torrents

Made with love by an Extratorrent Fan!