Le tre minestre | JusquÀ La Garde | DVDSeed | DSD | Movies | 2018 Review
extratorrent - A Fan Made Alternative Login   |   Register
Important Information
Registrations are open now
-------------------------------------

Please click here to register with Extratorrent2 to recieve latest updates, add bookmarks and to post comments.

Friends
Friends

1) ProxyFix

Extratorrent2 > Categories > Movies > Game of Thrones - Complete Season 1 2011 [UHD Blu-ray / HEVC / 2160p / 4K / HDR / m2ts] 1:1 torrent


Browse Movies torrents

Game of Thrones - Complete Season 1 2011 [UHD Blu-ray / HEVC / 2160p / 4K / HDR / m2ts] 1:1 torrent


Download torrent: Download Game of Thrones - Complete Season 1 2011 [UHD Blu-ray / HEVC / 2160p / 4K / HDR / m2ts] 1:1 torrent Magnet link Bookmark Torrent: Game of Thrones - Complete Season 1 2011 [UHD Blu-ray / HEVC / 2160p / 4K / HDR / m2ts] 1:1   Game of Thrones - Complete Season 1 2011 [UHD Blu-ray / HEVC / 2160p / 4K / HDR / m2ts] 1:1 torrent
Info hash: 91CBA2DFADEE3FD299E0CB67A0B360F90C3DAD13
Category: Categories > Movies
Trackers:
View all torrent trackers >
Health:
 seeds: 1 ,  leechers: 9 |  Update >
Torrent language: English English
Total Size: 331.0 GB
Files List:
0    View torrent files >
Uploader:
miszczkurde
Torrent added: June 25, 2018, 4:28 pm
Tags: game, of, thrones, uhd, season, 1, 01
Users rating: ---, not rated. please login to rate.

Download Game of Thrones - Complete Season 1 2011 [UHD Blu-ray / HEVC / 2160p / 4K / HDR / m2ts] 1:1 torrent



Torrent Description

Game of Thrones - Complete Season 1 2011 [UHD Blu-ray / HEVC / 2160p / 4K / HDR / TrueHD+Atmos 7.1 / .m2ts / 4x Blu-ray 1:1]

Code:

Disc Title: GOTUHD_S1_D1_B5
Disc Size: 98,906,180,618 bytes
Protection: AACS2
BD-Java: Yes
Extras: Ultra HD
BDInfo: 0.5.8.7 (compatible layout created by DVDFab 10.0.9.5)

QUICK SUMMARY: (S01E01)

Video: HEVC 3840x2160 23.976fps [V: hevc main 10 L5.1, yuv420p10le, 3840x2160]
Video: HEVC 1920x1080 23.976fps [V: hevc main 10 L5.1, yuv420p10le, 1920x1080]
Audio: Dolby AC3 48000Hz 6ch 640kbps [A: English [eng] (ac3, 48000 Hz, 5.1, 640 kb/s)]
Audio: TrueHD 48000Hz 8ch 9216kbps [A: English [eng] (truehd, 48000 Hz, 7.1, s24)]
Audio: Dolby AC3 48000Hz 6ch 640kbps [A: English [eng] (ac3, 48000 Hz, 5.1, 640 kb/s) [sub]]
Audio: Dolby AC3 48000Hz 6ch 448kbps [A: French [fra] (ac3, 48000 Hz, 5.1, 448 kb/s)]
Audio: Dolby AC3 48000Hz stereo 256kbps [A: Spanish [spa] (ac3, 48000 Hz, stereo, 256 kb/s)]
Audio: Dolby AC3 48000Hz 6ch 448kbps [A: Spanish [spa] (ac3, 48000 Hz, 5.1, 448 kb/s)]
Audio: Dolby AC3 48000Hz 6ch 448kbps [A: German [deu] (ac3, 48000 Hz, 5.1, 448 kb/s)]
Audio: Dolby AC3 48000Hz 6ch 448kbps [A: Italian [ita] (ac3, 48000 Hz, 5.1, 448 kb/s)]
Audio: DTS 48000Hz stereo 768kbps [A: Portuguese [por] (dts, 48000 Hz, stereo, 768 kb/s)]
Audio: DTS 48000Hz stereo 768kbps [A: Czech [ces] (dts, 48000 Hz, stereo, 768 kb/s)]
Audio: DTS 48000Hz stereo 768kbps [A: Hungarian [hun] (dts, 48000 Hz, stereo, 768 kb/s)]
Audio: DTS 48000Hz stereo 768kbps [A: Polish [pol] (dts, 48000 Hz, stereo, 768 kb/s)]
Audio: DTS 48000Hz 6ch 768kbps [A: Russian [rus] (dts, 48000 Hz, 5.1, 768 kb/s)]
Audio: Dolby AC3 48000Hz 6ch 448kbps [A: English [eng] (ac3, 48000 Hz, 5.1, 448 kb/s)]
Subtitle [S: English [eng] (pgs)]
Subtitle [S: French [fra] (pgs)]
Subtitle [S: Spanish [spa] (pgs)]
Subtitle [S: Spanish [spa] (pgs)]
Subtitle [S: German [deu] (pgs)]
Subtitle [S: Italian [ita] (pgs)]
Subtitle [S: Portuguese [por] (pgs)]
Subtitle [S: Czech [ces] (pgs)]
Subtitle [S: Hungarian [hun] (pgs)]
Subtitle [S: Polish [pol] (pgs)]
Subtitle [S: Russian [rus] (pgs)]
Subtitle [S: Dutch [nld] (pgs)]
Subtitle [S: Danish [dan] (pgs)]
Subtitle [S: Finnish [fin] (pgs)]
Subtitle [S: Norwegian [nor] (pgs)]
Subtitle [S: Swedish [swe] (pgs)]
Subtitle [S: Croatian [hrv] (pgs)]
Subtitle [S: Greek [ell] (pgs)]
Subtitle [S: Hebrew [heb] (pgs)]
Subtitle [S: Portuguese [por] (pgs)]
Subtitle [S: Romanian [ron] (pgs)]
Subtitle [S: Slovenian [slv] (pgs)]
Subtitle [S: Turkish [tur] (pgs)]
Subtitle [S: Chinese [zho] (pgs)]
Subtitle [S: Korean [kor] (pgs)]
Subtitle [S: Thai [tha] (pgs)]
Subtitle [S: Forced Subtitles (auto)]
Subtitle: UTF-8 [S: No subtitles]



Code:

MediaInfo: S01E01

Video #1
ID                             : 4113 (0x1011)
Menu ID                        : 1 (0x1)
Format                         : HEVC
Format/Info                    : High Efficiency Video Coding
Commercial name                : HDR10
Format profile                 : Main @High
Codec ID                       : 36
Duration                       : 1 h 1 min
Width                          : 3 840 pixels
Height                         : 2 160 pixels
Display aspect ratio           : 16:9
Frame rate                     : 23.976 (24000/1001) FPS
Color space                    : YUV
Chroma subsampling             : 4:2:0 (Type 2)
Bit depth                      : 10 bits
Color range                    : Limited
Color primaries                : BT.2020
Transfer characteristics       : PQ
Matrix coefficients            : BT.2020 non-constant
Mastering display color primar : BT.2020
Mastering display luminance    : min: 0.0020 cd/m2, max: 1000 cd/m2
format_identifier              : HDMV
Source                         : 00045.m2ts

Video #2
ID                             : 4117 (0x1015)
Menu ID                        : 1 (0x1)
Format                         : HEVC
Format/Info                    : High Efficiency Video Coding
Commercial name                : HDR10
Format profile                 : Main @High
Codec ID                       : 36
Duration                       : 1 h 1 min
Width                          : 1 920 pixels
Height                         : 1 080 pixels
Display aspect ratio           : 16:9
Frame rate                     : 23.976 (24000/1001) FPS
Color space                    : YUV
Chroma subsampling             : 4:2:0 (Type 2)
Bit depth                      : 10 bits
Color range                    : Limited
Color primaries                : BT.2020
Transfer characteristics       : PQ
Matrix coefficients            : BT.2020 non-constant
Mastering display color primar : BT.2020
Mastering display luminance    : min: 0.0020 cd/m2, max: 1000 cd/m2
format_identifier              : HDMV
Source                         : 00045.m2ts

Audio #1
ID                             : 4352 (0x1100)
Menu ID                        : 1 (0x1)
Format                         : AC-3
Format/Info                    : Audio Coding 3
Codec ID                       : 129
Duration                       : 1 h 1 min
Bit rate mode                  : Constant
Bit rate                       : 640 kb/s
Channel(s)                     : 6 channels
Channel positions              : Front: L C R, Side: L R, LFE
Sampling rate                  : 48.0 kHz
Frame rate                     : 31.250 FPS (1536 SPF)
Bit depth                      : 16 bits
Compression mode               : Lossy
Delay relative to video        : 2 s 2 ms
Stream size                    : 282 MiB
Language                       : English
Service kind                   : Complete Main
bsid                           : 6
dialnorm                       : -31
dialnorm                       : -31 dB
compr                          : -0.28
compr                          : -0.28 dB
acmod                          : 7
lfeon                          : 1
dialnorm_Average               : -31
dialnorm_Average               : -31 dB
dialnorm_Minimum               : -31
dialnorm_Minimum               : -31 dB
dialnorm_Maximum               : -31
dialnorm_Maximum               : -31 dB
dialnorm_Count                 : 514
compr_Average                  : 2.47
compr_Average                  : 2.47 dB
compr_Minimum                  : -13.84
compr_Minimum                  : -13.84 dB
compr_Maximum                  : 5.74
compr_Maximum                  : 5.74 dB
compr_Count                    : 487
dynrng_Average                 : 2.38
dynrng_Average                 : 2.38 dB
dynrng_Minimum                 : -12.46
dynrng_Minimum                 : -12.46 dB
dynrng_Maximum                 : 5.74
dynrng_Maximum                 : 5.74 dB
dynrng_Count                   : 508
format_identifier              : AC-3
Source                         : 00045.m2ts

Audio #2
ID                             : 4353 (0x1101)
Menu ID                        : 1 (0x1)
Format                         : TrueHD / AC-3
Format profile                 : TrueHD+Atmos / TrueHD / AC-3
Muxing mode                    : Stream extension
Codec ID                       : 131
Duration                       : 1 h 1 min
Bit rate mode                  : Variable / Constant
Bit rate                       : 640 kb/s
Maximum bit rate               : 7 887 kb/s
Channel(s)                     : Object Based / 8 channels / 6 channels
Channel positions              : Object Based / Front: L C R, Side: L R, Back: L R, LFE / Front: L C R, Side: L R, LFE
Sampling rate                  :  / 48.0 kHz / 48.0 kHz
Frame rate                     : 31.250 FPS (1536 SPF)
Bit depth                      : 16 bits
Compression mode               : Lossless
Stream size                    : 282 MiB
Language                       : English
Service kind                   : Complete Main
bsid                           : 6
dialnorm                       : -31
dialnorm                       : -31 dB
compr                          : 0.53
compr                          : 0.53 dB
dynrng                         : 0.27
dynrng                         : 0.27 dB
acmod                          : 7
lfeon                          : 1
dialnorm_Average               : -31
dialnorm_Average               : -31 dB
dialnorm_Minimum               : -31
dialnorm_Minimum               : -31 dB
dialnorm_Maximum               : -31
dialnorm_Maximum               : -31 dB
dialnorm_Count                 : 514
compr_Average                  : 3.03
compr_Average                  : 3.03 dB
compr_Minimum                  : -16.57
compr_Minimum                  : -16.57 dB
compr_Maximum                  : 5.74
compr_Maximum                  : 5.74 dB
compr_Count                    : 406
dynrng_Average                 : 2.42
dynrng_Average                 : 2.42 dB
dynrng_Minimum                 : -7.99
dynrng_Minimum                 : -7.99 dB
dynrng_Maximum                 : 5.60
dynrng_Maximum                 : 5.60 dB
dynrng_Count                   : 511
format_identifier              : AC-3
Source                         : 00045.m2ts

Audio #3
ID                             : 4354 (0x1102)
Menu ID                        : 1 (0x1)
Format                         : AC-3
Format/Info                    : Audio Coding 3
Codec ID                       : 129
Duration                       : 1 h 1 min
Bit rate mode                  : Constant
Bit rate                       : 448 kb/s
Channel(s)                     : 6 channels
Channel positions              : Front: L C R, Side: L R, LFE
Sampling rate                  : 48.0 kHz
Frame rate                     : 31.250 FPS (1536 SPF)
Bit depth                      : 16 bits
Compression mode               : Lossy
Delay relative to video        : 2 s 2 ms
Stream size                    : 198 MiB
Language                       : French
Service kind                   : Complete Main
bsid                           : 6
dialnorm                       : -31
dialnorm                       : -31 dB
compr                          : -0.28
compr                          : -0.28 dB
acmod                          : 7
lfeon                          : 1
dialnorm_Average               : -31
dialnorm_Average               : -31 dB
dialnorm_Minimum               : -31
dialnorm_Minimum               : -31 dB
dialnorm_Maximum               : -31
dialnorm_Maximum               : -31 dB
dialnorm_Count                 : 514
compr_Average                  : 2.41
compr_Average                  : 2.41 dB
compr_Minimum                  : -14.54
compr_Minimum                  : -14.54 dB
compr_Maximum                  : 5.74
compr_Maximum                  : 5.74 dB
compr_Count                    : 501
dynrng_Average                 : 2.38
dynrng_Average                 : 2.38 dB
dynrng_Minimum                 : -12.32
dynrng_Minimum                 : -12.32 dB
dynrng_Maximum                 : 5.60
dynrng_Maximum                 : 5.60 dB
dynrng_Count                   : 511
format_identifier              : AC-3
Source                         : 00045.m2ts

Audio #4
ID                             : 4355 (0x1103)
Menu ID                        : 1 (0x1)
Format                         : AC-3
Format/Info                    : Audio Coding 3
Codec ID                       : 129
Duration                       : 1 h 1 min
Bit rate mode                  : Constant
Bit rate                       : 256 kb/s
Channel(s)                     : 2 channels
Channel positions              : Front: L R
Sampling rate                  : 48.0 kHz
Frame rate                     : 31.250 FPS (1536 SPF)
Bit depth                      : 16 bits
Compression mode               : Lossy
Delay relative to video        : 2 s 2 ms
Stream size                    : 113 MiB
Language                       : Spanish
Service kind                   : Complete Main
bsid                           : 6
dialnorm                       : -31
dialnorm                       : -31 dB
compr                          : -0.28
compr                          : -0.28 dB
dsurmod                        : 2
dsurmod                        : Dolby Surround encoded
acmod                          : 2
lfeon                          : 0
dialnorm_Average               : -31
dialnorm_Average               : -31 dB
dialnorm_Minimum               : -31
dialnorm_Minimum               : -31 dB
dialnorm_Maximum               : -31
dialnorm_Maximum               : -31 dB
dialnorm_Count                 : 513
compr_Average                  : 2.29
compr_Average                  : 2.29 dB
compr_Minimum                  : -13.52
compr_Minimum                  : -13.52 dB
compr_Maximum                  : 5.46
compr_Maximum                  : 5.46 dB
compr_Count                    : 500
dynrng_Average                 : 2.34
dynrng_Average                 : 2.34 dB
dynrng_Minimum                 : -13.20
dynrng_Minimum                 : -13.20 dB
dynrng_Maximum                 : 5.46
dynrng_Maximum                 : 5.46 dB
dynrng_Count                   : 512
format_identifier              : AC-3
Source                         : 00045.m2ts

Audio #5
ID                             : 4356 (0x1104)
Menu ID                        : 1 (0x1)
Format                         : AC-3
Format/Info                    : Audio Coding 3
Codec ID                       : 129
Duration                       : 1 h 1 min
Bit rate mode                  : Constant
Bit rate                       : 448 kb/s
Channel(s)                     : 6 channels
Channel positions              : Front: L C R, Side: L R, LFE
Sampling rate                  : 48.0 kHz
Frame rate                     : 31.250 FPS (1536 SPF)
Bit depth                      : 16 bits
Compression mode               : Lossy
Delay relative to video        : 2 s 2 ms
Stream size                    : 198 MiB
Language                       : Spanish
Service kind                   : Complete Main
bsid                           : 6
dialnorm                       : -31
dialnorm                       : -31 dB
compr                          : -0.28
compr                          : -0.28 dB
acmod                          : 7
lfeon                          : 1
dialnorm_Average               : -31
dialnorm_Average               : -31 dB
dialnorm_Minimum               : -31
dialnorm_Minimum               : -31 dB
dialnorm_Maximum               : -31
dialnorm_Maximum               : -31 dB
dialnorm_Count                 : 514
compr_Average                  : 1.54
compr_Average                  : 1.54 dB
compr_Minimum                  : -13.84
compr_Minimum                  : -13.84 dB
compr_Maximum                  : 5.46
compr_Maximum                  : 5.46 dB
compr_Count                    : 496
dynrng_Average                 : 2.22
dynrng_Average                 : 2.22 dB
dynrng_Minimum                 : -12.46
dynrng_Minimum                 : -12.46 dB
dynrng_Maximum                 : 5.46
dynrng_Maximum                 : 5.46 dB
dynrng_Count                   : 511
format_identifier              : AC-3
Source                         : 00045.m2ts

Audio #6
ID                             : 4357 (0x1105)
Menu ID                        : 1 (0x1)
Format                         : AC-3
Format/Info                    : Audio Coding 3
Codec ID                       : 129
Duration                       : 1 h 1 min
Bit rate mode                  : Constant
Bit rate                       : 448 kb/s
Channel(s)                     : 6 channels
Channel positions              : Front: L C R, Side: L R, LFE
Sampling rate                  : 48.0 kHz
Frame rate                     : 31.250 FPS (1536 SPF)
Bit depth                      : 16 bits
Compression mode               : Lossy
Delay relative to video        : 2 s 2 ms
Stream size                    : 198 MiB
Language                       : German
Service kind                   : Complete Main
bsid                           : 6
dialnorm                       : -31
dialnorm                       : -31 dB
compr                          : -0.28
compr                          : -0.28 dB
acmod                          : 7
lfeon                          : 1
dialnorm_Average               : -31
dialnorm_Average               : -31 dB
dialnorm_Minimum               : -31
dialnorm_Minimum               : -31 dB
dialnorm_Maximum               : -31
dialnorm_Maximum               : -31 dB
dialnorm_Count                 : 514
compr_Average                  : 2.52
compr_Average                  : 2.52 dB
compr_Minimum                  : -13.84
compr_Minimum                  : -13.84 dB
compr_Maximum                  : 5.46
compr_Maximum                  : 5.46 dB
compr_Count                    : 501
dynrng_Average                 : 2.48
dynrng_Average                 : 2.48 dB
dynrng_Minimum                 : -12.60
dynrng_Minimum                 : -12.60 dB
dynrng_Maximum                 : 5.60
dynrng_Maximum                 : 5.60 dB
dynrng_Count                   : 513
format_identifier              : AC-3
Source                         : 00045.m2ts

Audio #7
ID                             : 4358 (0x1106)
Menu ID                        : 1 (0x1)
Format                         : AC-3
Format/Info                    : Audio Coding 3
Codec ID                       : 129
Duration                       : 1 h 1 min
Bit rate mode                  : Constant
Bit rate                       : 448 kb/s
Channel(s)                     : 6 channels
Channel positions              : Front: L C R, Side: L R, LFE
Sampling rate                  : 48.0 kHz
Frame rate                     : 31.250 FPS (1536 SPF)
Bit depth                      : 16 bits
Compression mode               : Lossy
Delay relative to video        : 2 s 2 ms
Stream size                    : 198 MiB
Language                       : Italian
Service kind                   : Complete Main
bsid                           : 6
dialnorm                       : -31
dialnorm                       : -31 dB
compr                          : -0.28
compr                          : -0.28 dB
acmod                          : 7
lfeon                          : 1
dialnorm_Average               : -31
dialnorm_Average               : -31 dB
dialnorm_Minimum               : -31
dialnorm_Minimum               : -31 dB
dialnorm_Maximum               : -31
dialnorm_Maximum               : -31 dB
dialnorm_Count                 : 515
compr_Average                  : 2.50
compr_Average                  : 2.50 dB
compr_Minimum                  : -13.52
compr_Minimum                  : -13.52 dB
compr_Maximum                  : 5.46
compr_Maximum                  : 5.46 dB
compr_Count                    : 501
dynrng_Average                 : 2.47
dynrng_Average                 : 2.47 dB
dynrng_Minimum                 : -12.18
dynrng_Minimum                 : -12.18 dB
dynrng_Maximum                 : 5.60
dynrng_Maximum                 : 5.60 dB
dynrng_Count                   : 512
format_identifier              : AC-3
Source                         : 00045.m2ts

Audio #8
ID                             : 4359 (0x1107)
Menu ID                        : 1 (0x1)
Format                         : DTS
Format/Info                    : Digital Theater Systems
Codec ID                       : 130
Duration                       : 1 h 1 min
Bit rate mode                  : Constant
Bit rate                       : 768 kb/s
Channel(s)                     : 2 channels
Channel positions              : Front: L R
Sampling rate                  : 48.0 kHz
Frame rate                     : 93.750 FPS (512 SPF)
Bit depth                      : 24 bits
Compression mode               : Lossy
Delay relative to video        : 2 s 2 ms
Stream size                    : 339 MiB
Language                       : Portuguese
Source                         : 00045.m2ts

Audio #9
ID                             : 4360 (0x1108)
Menu ID                        : 1 (0x1)
Format                         : DTS
Format/Info                    : Digital Theater Systems
Codec ID                       : 130
Duration                       : 1 h 1 min
Bit rate mode                  : Constant
Bit rate                       : 768 kb/s
Channel(s)                     : 2 channels
Channel positions              : Front: L R
Sampling rate                  : 48.0 kHz
Frame rate                     : 93.750 FPS (512 SPF)
Bit depth                      : 24 bits
Compression mode               : Lossy
Delay relative to video        : 2 s 2 ms
Stream size                    : 339 MiB
Language                       : Czech
Source                         : 00045.m2ts

Audio #10
ID                             : 4361 (0x1109)
Menu ID                        : 1 (0x1)
Format                         : DTS
Format/Info                    : Digital Theater Systems
Codec ID                       : 130
Duration                       : 1 h 1 min
Bit rate mode                  : Constant
Bit rate                       : 768 kb/s
Channel(s)                     : 2 channels
Channel positions              : Front: L R
Sampling rate                  : 48.0 kHz
Frame rate                     : 93.750 FPS (512 SPF)
Bit depth                      : 24 bits
Compression mode               : Lossy
Delay relative to video        : 2 s 2 ms
Stream size                    : 339 MiB
Language                       : Hungarian
Source                         : 00045.m2ts

Audio #11
ID                             : 4362 (0x110A)
Menu ID                        : 1 (0x1)
Format                         : DTS
Format/Info                    : Digital Theater Systems
Codec ID                       : 130
Duration                       : 1 h 1 min
Bit rate mode                  : Constant
Bit rate                       : 768 kb/s
Channel(s)                     : 2 channels
Channel positions              : Front: L R
Sampling rate                  : 48.0 kHz
Frame rate                     : 93.750 FPS (512 SPF)
Bit depth                      : 24 bits
Compression mode               : Lossy
Delay relative to video        : 2 s 2 ms
Stream size                    : 339 MiB
Language                       : Polish
Source                         : 00045.m2ts

Audio #12
ID                             : 4363 (0x110B)
Menu ID                        : 1 (0x1)
Format                         : DTS
Format/Info                    : Digital Theater Systems
Codec ID                       : 130
Duration                       : 1 h 1 min
Bit rate mode                  : Constant
Bit rate                       : 768 kb/s
Channel(s)                     : 6 channels
Channel positions              : Front: L C R, Side: L R, LFE
Sampling rate                  : 48.0 kHz
Frame rate                     : 93.750 FPS (512 SPF)
Bit depth                      : 24 bits
Compression mode               : Lossy
Delay relative to video        : 2 s 2 ms
Stream size                    : 339 MiB
Language                       : Russian
Source                         : 00045.m2ts

Audio #13
ID                             : 4364 (0x110C)
Menu ID                        : 1 (0x1)
Format                         : AC-3
Format/Info                    : Audio Coding 3
Codec ID                       : 129
Duration                       : 1 h 1 min
Bit rate mode                  : Constant
Bit rate                       : 448 kb/s
Channel(s)                     : 6 channels
Channel positions              : Front: L C R, Side: L R, LFE
Sampling rate                  : 48.0 kHz
Frame rate                     : 31.250 FPS (1536 SPF)
Bit depth                      : 16 bits
Compression mode               : Lossy
Delay relative to video        : 2 s 2 ms
Stream size                    : 198 MiB
Language                       : English
Service kind                   : Complete Main
bsid                           : 6
dialnorm                       : -31
dialnorm                       : -31 dB
compr                          : -0.28
compr                          : -0.28 dB
acmod                          : 7
lfeon                          : 1
dialnorm_Average               : -31
dialnorm_Average               : -31 dB
dialnorm_Minimum               : -31
dialnorm_Minimum               : -31 dB
dialnorm_Maximum               : -31
dialnorm_Maximum               : -31 dB
dialnorm_Count                 : 515
compr_Average                  : 0.61
compr_Average                  : 0.61 dB
compr_Minimum                  : -6.02
compr_Minimum                  : -6.02 dB
compr_Maximum                  : 5.46
compr_Maximum                  : 5.46 dB
compr_Count                    : 499
dynrng_Average                 : 0.60
dynrng_Average                 : 0.60 dB
dynrng_Minimum                 : -5.75
dynrng_Minimum                 : -5.75 dB
dynrng_Maximum                 : 5.60
dynrng_Maximum                 : 5.60 dB
dynrng_Count                   : 512
format_identifier              : AC-3
Source                         : 00045.m2ts

Text #1
ID                             : 4768 (0x12A0)
Menu ID                        : 1 (0x1)
Format                         : PGS
Codec ID                       : 144
Duration                       : 1 h 1 min
Delay relative to video        : 12 s 554 ms
Language                       : English
Source                         : 00045.m2ts

Text #2
ID                             : 4769 (0x12A1)
Menu ID                        : 1 (0x1)
Format                         : PGS
Codec ID                       : 144
Duration                       : 1 h 1 min
Language                       : French
Source                         : 00045.m2ts

Text #3
ID                             : 4770 (0x12A2)
Menu ID                        : 1 (0x1)
Format                         : PGS
Codec ID                       : 144
Duration                       : 1 h 1 min
Language                       : Spanish
Source                         : 00045.m2ts

Text #4
ID                             : 4771 (0x12A3)
Menu ID                        : 1 (0x1)
Format                         : PGS
Codec ID                       : 144
Duration                       : 1 h 1 min
Language                       : Spanish
Source                         : 00045.m2ts

Text #5
ID                             : 4772 (0x12A4)
Menu ID                        : 1 (0x1)
Format                         : PGS
Codec ID                       : 144
Duration                       : 1 h 1 min
Language                       : German
Source                         : 00045.m2ts

Text #6
ID                             : 4773 (0x12A5)
Menu ID                        : 1 (0x1)
Format                         : PGS
Codec ID                       : 144
Duration                       : 1 h 1 min
Delay relative to video        : 12 s 554 ms
Language                       : Italian
Source                         : 00045.m2ts

Text #7
ID                             : 4774 (0x12A6)
Menu ID                        : 1 (0x1)
Format                         : PGS
Codec ID                       : 144
Duration                       : 1 h 1 min
Language                       : Portuguese
Source                         : 00045.m2ts

Text #8
ID                             : 4775 (0x12A7)
Menu ID                        : 1 (0x1)
Format                         : PGS
Codec ID                       : 144
Duration                       : 1 h 1 min
Language                       : Czech
Source                         : 00045.m2ts

Text #9
ID                             : 4776 (0x12A8)
Menu ID                        : 1 (0x1)
Format                         : PGS
Codec ID                       : 144
Duration                       : 1 h 1 min
Language                       : Hungarian
Source                         : 00045.m2ts

Text #10
ID                             : 4777 (0x12A9)
Menu ID                        : 1 (0x1)
Format                         : PGS
Codec ID                       : 144
Duration                       : 1 h 1 min
Language                       : Polish
Source                         : 00045.m2ts

Text #11
ID                             : 4778 (0x12AA)
Menu ID                        : 1 (0x1)
Format                         : PGS
Codec ID                       : 144
Duration                       : 1 h 1 min
Language                       : Russian
Source                         : 00045.m2ts

Text #12
ID                             : 4779 (0x12AB)
Menu ID                        : 1 (0x1)
Format                         : PGS
Codec ID                       : 144
Duration                       : 1 h 1 min
Language                       : Dutch
Source                         : 00045.m2ts

Text #13
ID                             : 4780 (0x12AC)
Menu ID                        : 1 (0x1)
Format                         : PGS
Codec ID                       : 144
Duration                       : 1 h 1 min
Language                       : Danish
Source                         : 00045.m2ts

Text #14
ID                             : 4781 (0x12AD)
Menu ID                        : 1 (0x1)
Format                         : PGS
Codec ID                       : 144
Duration                       : 1 h 1 min
Language                       : Finnish
Source                         : 00045.m2ts

Text #15
ID                             : 4782 (0x12AE)
Menu ID                        : 1 (0x1)
Format                         : PGS
Codec ID                       : 144
Duration                       : 1 h 1 min
Language                       : Norwegian
Source                         : 00045.m2ts

Text #16
ID                             : 4783 (0x12AF)
Menu ID                        : 1 (0x1)
Format                         : PGS
Codec ID                       : 144
Duration                       : 1 h 1 min
Language                       : Swedish
Source                         : 00045.m2ts

Text #17
ID                             : 4784 (0x12B0)
Menu ID                        : 1 (0x1)
Format                         : PGS
Codec ID                       : 144
Duration                       : 1 h 1 min
Language                       : Croatian
Source                         : 00045.m2ts

Text #18
ID                             : 4785 (0x12B1)
Menu ID                        : 1 (0x1)
Format                         : PGS
Codec ID                       : 144
Duration                       : 1 h 1 min
Language                       : Greek
Source                         : 00045.m2ts

Text #19
ID                             : 4786 (0x12B2)
Menu ID                        : 1 (0x1)
Format                         : PGS
Codec ID                       : 144
Duration                       : 1 h 1 min
Language                       : Hebrew
Source                         : 00045.m2ts

Text #20
ID                             : 4787 (0x12B3)
Menu ID                        : 1 (0x1)
Format                         : PGS
Codec ID                       : 144
Duration                       : 1 h 1 min
Language                       : Portuguese
Source                         : 00045.m2ts

Text #21
ID                             : 4788 (0x12B4)
Menu ID                        : 1 (0x1)
Format                         : PGS
Codec ID                       : 144
Duration                       : 1 h 1 min
Language                       : Romanian
Source                         : 00045.m2ts

Text #22
ID                             : 4789 (0x12B5)
Menu ID                        : 1 (0x1)
Format                         : PGS
Codec ID                       : 144
Duration                       : 1 h 1 min
Language                       : Slovenian
Source                         : 00045.m2ts

Text #23
ID                             : 4790 (0x12B6)
Menu ID                        : 1 (0x1)
Format                         : PGS
Codec ID                       : 144
Duration                       : 1 h 1 min
Language                       : Turkish
Source                         : 00045.m2ts

Text #24
ID                             : 4791 (0x12B7)
Menu ID                        : 1 (0x1)
Format                         : PGS
Codec ID                       : 144
Duration                       : 1 h 1 min
Language                       : Chinese
Source                         : 00045.m2ts

Text #25
ID                             : 4792 (0x12B8)
Menu ID                        : 1 (0x1)
Format                         : PGS
Codec ID                       : 144
Duration                       : 1 h 1 min
Language                       : Korean
Source                         : 00045.m2ts

Text #26
ID                             : 4793 (0x12B9)
Menu ID                        : 1 (0x1)
Format                         : PGS
Codec ID                       : 144
Duration                       : 1 h 1 min
Language                       : Thai
Source                         : 00045.m2ts

Menu
00:00:00.000                   : Chapter 1
00:00:08.008                   : Chapter 2
00:07:18.438                   : Chapter 3
00:08:58.538                   : Chapter 4
00:18:16.512                   : Chapter 5
00:28:48.560                   : Chapter 6
00:39:37.583                   : Chapter 7
00:50:02.040                   : Chapter 8
01:00:34.631                   : Chapter 9
01:01:39.862                   : Chapter 10



Download Game of Thrones - Complete Season 1 2011 [UHD Blu-ray / HEVC / 2160p / 4K / HDR / m2ts] 1:1 torrent


Related Torrents


Comments   (please login to add your comment!)


Home - Browse Torrents

Made with love by an Extratorrent Fan!