Chapter 801: Even Though You Ran Away The Whole Time | Auto Plus France – 06 juillet 2018 | Craig Of The ...
extratorrent - A Fan Made Alternative Login   |   Register
Important Information
Registrations are open now
-------------------------------------

Please click here to register with Extratorrent2 to recieve latest updates, add bookmarks and to post comments.

Friends
Friends

1) Filebebo
-------------------------------------
2) MoviesDig
-------------------------------------
3) Torrentz2.cc
-------------------------------------
4) Torrents.me

Extratorrent2 > Categories > Movies > Hebbuli (2018) 720p Hindi Dubbed HDRip x264 AAC by Full4movies torrent


Browse Movies torrents

Hebbuli (2018) 720p Hindi Dubbed HDRip x264 AAC by Full4movies torrent


Download torrent: Download Hebbuli (2018) 720p Hindi Dubbed HDRip x264 AAC by Full4movies torrent Magnet link Bookmark Torrent: Hebbuli (2018) 720p Hindi Dubbed HDRip x264 AAC by Full4movies   Hebbuli (2018) 720p Hindi Dubbed HDRip x264 AAC by Full4movies torrent
Info hash: C33FEA5FDE8B1B7F03697FC5AC641031DF813FFF
Category: Categories > Movies
Trackers:
View all torrent trackers >
Health:
 seeds: 89 ,  leechers: 154 |  Update >
Torrent language: Spanish Spanish
Total Size: 1.2 GB
Files List:
1    View torrent files >
Uploader:
shmasti
Torrent added: May 12, 2018, 1:32 am
Tags: Action, Crime, Thriller
Users rating: ---, not rated. please login to rate.

Download Hebbuli (2018) 720p Hindi Dubbed HDRip x264 AAC by Full4movies torrent



Torrent Description



General
Complete name : Hebbuli (2018) 720p Hindi Dubbed HDRip x264 AAC by Full4movies.mkv
Format : Matroska
Format version : Version 4 / Version 2
File size : 1.20 GiB
Duration : 1 h 56 min
Overall bit rate : 1 476 kb/s
Movie name : Hebbuli (2018) Hindi
Encoded date : UTC 2018-05-11 18:32:05
Writing application : mkvmerge v8.1.0 ('Psychedelic Postcard') 32bit
Writing library : libebml v1.3.1 + libmatroska v1.4.2

Video
ID : 1
Format : AVC
Format/Info : Advanced Video Codec
Format profile :
Format settings, CABAC : Yes
Format settings, RefFrames : 3 frames
Codec ID : V_MPEG4/ISO/AVC
Duration : 1 h 56 min
Bit rate : 1 348 kb/s
Width : 1 280 pixels
Height : 720 pixels
Display aspect ratio : 16:9
Frame rate mode : Constant
Frame rate : 25.000 FPS
Color space : YUV
Chroma subsampling : 4:2:0
Bit depth : 8 bits
Scan type : Progressive
Bits/(Pixel*Frame) : 0.059
Stream size : 1.09 GiB (91%)
Language : Kannada
Default : Yes
Forced : No
Color range : Limited
Color primaries : BT.709
Transfer characteristics : BT.709
Matrix coefficients : BT.709

Audio
ID : 2
Format : AAC
Format/Info : Advanced Audio Codec
Format profile : LC
Codec ID : A_AAC
Duration : 1 h 56 min
Bit rate : 126 kb/s
Channel(s) : 2 channels
Channel positions : Front: L R
Sampling rate : 44.1 kHz
Frame rate : 43.066 FPS (1024 SPF)
Compression mode : Lossy
Stream size : 104 MiB (9%)
Language : Hindi
Default : Yes
Forced : No

Screen Shoots


Download Hebbuli (2018) 720p Hindi Dubbed HDRip x264 AAC by Full4movies torrent


Related Torrents

Added  Size  Health
Download Magnet link Browse Movies torrent Hebbuli (2018) HINDI DUBBED 720P UNTOUCHED WEB HD - AVC - AAC -1.2GB Movcr in Movies - Bollywood, by
tamilohd
19h 1.2 GB 199 389



Comments   (please login to add your comment!)

hendrix discography     hindi 720p 2017     wicked     brianna ruslana     aria alexander evilangel     gisele     hindi     fallon     welcome to paradise     suicide squad xxx an axel braun parody     bangbros     moms bang     mission     bionic woman     hebbuli 2018     shay fox brazzers     bwb     dvd9 ita     windows 7 sp1 aio 12in1 oem     lady dee undercover     savage sam     indian     hot scene     mastermix 372     


Home - Browse Torrents

Made with love by an Extratorrent Fan!