тег Выживание | Weekly Young Magazine jp 2018-33 rar | Watch movie
extratorrent - A Fan Made Alternative Login   |   Register
Important Information
Registrations are open now
-------------------------------------

Please click here to register with Extratorrent2 to recieve latest updates, add bookmarks and to post comments.

Friends
Friends

1) Filebebo
-------------------------------------
2) MoviesDig
-------------------------------------
3) Torrentz2.cc
-------------------------------------
4) Torrents.me

Extratorrent2 > Categories > TV > [Prof] Game of Thrones Season 3 (1080p x265 HEVC 10bit AAC 5.1) torrent


Browse TV torrents

[Prof] Game of Thrones Season 3 (1080p x265 HEVC 10bit AAC 5.1) torrent


Download torrent: Download [Prof] Game of Thrones Season 3 (1080p x265 HEVC 10bit AAC 5.1) torrent Magnet link Bookmark Torrent: [Prof] Game of Thrones Season 3 (1080p x265 HEVC 10bit AAC 5.1)   [Prof] Game of Thrones Season 3 (1080p x265 HEVC 10bit AAC 5.1) torrent
Info hash: CAD73261F54CD5736FE2CD9B5EF51F24CE738880
Category: Categories > TV
Trackers:
View all torrent trackers >
Health:
 seeds: 9 ,  leechers: 5 |  Update >
Torrent language: English English
Total Size: 21.6 GB
Files List:
10    View torrent files >
Uploader:
Prof
Torrent added: May 6, 2018, 3:35 pm
Users rating: ---, not rated. please login to rate.

Download [Prof] Game of Thrones Season 3 (1080p x265 HEVC 10bit AAC 5.1) torrent



Torrent Description

Format : Matroska
Format version : Version 4 / Version 2
File size : 1.95 GiB
Duration : 54 min 31 s
Overall bit rate : 5 115 kb/s
Movie name : Game Of Thrones Season 3 Disc 1
Encoded date : UTC 2018-04-18 06:01:23
Writing application : mkvmerge v9.6.0 ('Slave To Your Mind') 64bit
Writing library : libebml v1.3.4 + libmatroska v1.4.5

Video
ID : 1
Format : HEVC
Format/Info : High Efficiency Video Coding
Format profile : Main @Main
Codec ID : V_MPEGH/ISO/HEVC
Duration : 54 min 31 s
Bit rate : 4 179 kb/s
Width : 1 920 pixels
Height : 1 080 pixels
Display aspect ratio : 16:9
Frame rate mode : Constant
Frame rate : 23.976 (24000/1001) FPS
Color space : YUV
Chroma subsampling : 4:2:0
Bit depth : 10 bits
Bits/(Pixel*Frame) : 0.084
Stream size : 1.59 GiB (82%)
Writing library : x265 2.1+69-c97c64ab8b8e:[Windows][GCC 6.2.0][64 bit] 10bit
Encoding settings : cpuid=1173503 / frame-threads=2 / numa-pools=4 / wpp / no-pmode / no-pme / no-psnr / no-ssim / log-level=2 / input-csp=1 / input-res=1920x1080 / interlace=0 / total-frames=78438 / level-idc=0 / high-tier=1 / uhd-bd=0 / ref=4 / no-allow-non-conformance / no-repeat-headers / annexb / no-aud / no-hrd / info / hash=0 / no-temporal-layers / open-gop / min-keyint=23 / keyint=250 / bframes=4 / b-adapt=2 / b-pyramid / bframe-bias=0 / rc-lookahead=25 / lookahead-slices=4 / scenecut=40 / no-intra-refresh / ctu=64 / min-cu-size=8 / rect / no-amp / max-tu-size=32 / tu-inter-depth=1 / tu-intra-depth=1 / limit-tu=0 / rdoq-level=2 / signhide / no-tskip / nr-intra=0 / nr-inter=0 / no-constrained-intra / strong-intra-smoothing / max-merge=3 / limit-refs=3 / limit-modes / me=3 / subme=3 / merange=57 / temporal-mvp / weightp / no-weightb / no-analyze-src-pics / deblock=0:0 / sao / no-sao-non-deblock / rd=4 / no-early-skip / rskip / no-fast-intra / no-tskip-fast / no-cu-lossless / no-b-intra / rdpenalty=0 / psy-rd=2.00 / psy-rdoq=1.00 / no-rd-refine / analysis-mode=0 / no-lossless / cbqpoffs=0 / crqpoffs=0 / rc=crf / crf=18.0 / qcomp=0.60 / qpstep=4 / stats-write=0 / stats-read=0 / ipratio=1.40 / pbratio=1.30 / aq-mode=1 / aq-strength=1.00 / cutree / zone-count=0 / no-strict-cbr / qg-size=32 / no-rc-grain / qpmax=69 / qpmin=0 / sar=0 / overscan=0 / videoformat=5 / range=0 / colorprim=2 / transfer=2 / colormatrix=2 / chromaloc=0 / display-window=0 / max-cll=0,0 / min-luma=0 / max-luma=1023 / log2-max-poc-lsb=8 / vui-timing-info / vui-hrd-info / slices=1 / opt-qp-pps / opt-ref-list-length-pps / no-multi-pass-opt-rps / scenecut-bias=0.05
Default : Yes
Forced : No

Audio
ID : 2
Format : AAC
Format/Info : Advanced Audio Codec
Format profile : LC
Codec ID : A_AAC
Duration : 54 min 31 s
Bit rate : 922 kb/s
Channel(s) : 6 channels
Channel positions : Front: L C R, Side: L R, LFE
Sampling rate : 48.0 kHz
Frame rate : 46.875 FPS (1024 spf)
Compression mode : Lossy
Delay relative to video : 9 ms
Stream size : 360 MiB (18%)
Language : English
Default : No
Forced : No

Text #1
ID : 3
Format : PGS
Muxing mode : zlib
Codec ID : S_HDMV/PGS
Codec ID/Info : Picture based subtitle format used on BDs/HD-DVDs
Duration : 52 min 50 s
Bit rate : 11.6 kb/s
Count of elements : 1420
Stream size : 4.38 MiB (0%)
Language : English
Default : No
Forced : No

Text #2
ID : 4
Format : PGS
Muxing mode : zlib
Codec ID : S_HDMV/PGS
Codec ID/Info : Picture based subtitle format used on BDs/HD-DVDs
Duration : 3 min 9 s
Bit rate : 5 798 b/s
Count of elements : 42
Stream size : 134 KiB (0%)
Language : English
Default : No
Forced : No

Menu
00:00:00.000 : en:Chapter 01
00:00:06.464 : en:Chapter 02
00:05:06.556 : en:Chapter 03
00:12:28.247 : en:Chapter 04
00:18:51.547 : en:Chapter 05
00:26:45.854 : en:Chapter 06
00:35:24.372 : en:Chapter 07
00:43:18.304 : en:Chapter 08
00:53:12.022 : en:Chapter 09


Download [Prof] Game of Thrones Season 3 (1080p x265 HEVC 10bit AAC 5.1) torrent


Related Torrents

Added  Size  Health
Download Magnet link Browse TV torrent [Prof] Game of Thrones Season 2 (1080p x265 HEVC 10bit AAC 5.1) in TV - HEVC/x265, by
Prof
3w 20.7 GB 5 4



Comments   (please login to add your comment!)

the big bang theory     johnny engilsh     2017 hindi blu ray     sexy 2017     evilangel adriana chechik manuel ferrara     sex tape     business man hindi     jayden cole     les stagiaires     kate humble     monster high welcome to monster high     sara xxx     birthday blues     net skirts 17     casting suzy     dinosaur     chips ita     bigboy     smokie     14 2015     loser     ass and tits     3ds max keygen     shavelle love     


Home - Browse Torrents

Made with love by an Extratorrent Fan!