Die Warnung (2018) | Father of Independence: DS Nidhasa Piya (2018) | Sparkle Brushes Set
extratorrent - A Fan Made Alternative Login   |   Register
Important Information
Registrations are open now
-------------------------------------

Please click here to register with Extratorrent2 to recieve latest updates, add bookmarks and to post comments.

Friends
Friends

1) ProxyFix

Extratorrent2 > Categories > Movies > Le.ultime.24.ore.2018.iTALiAN.MD.BRRip-DDLV torrent


Browse Movies torrents

Le.ultime.24.ore.2018.iTALiAN.MD.BRRip-DDLV torrent


Download torrent: Download Le.ultime.24.ore.2018.iTALiAN.MD.BRRip-DDLV torrent Magnet link Bookmark Torrent: Le.ultime.24.ore.2018.iTALiAN.MD.BRRip-DDLV   Le.ultime.24.ore.2018.iTALiAN.MD.BRRip-DDLV torrent
Info hash: 75E235E970E96BCF8047817FA9156E1AF74EE2B3
Category: Categories > Movies
Trackers:
View all torrent trackers >
Health:
 seeds: 13 ,  leechers: 8 |  Update >
Torrent language: Italian Italian
Total Size: 1.0 GB
Files List:
1    View torrent files >
Uploader:
s7en07
Torrent added: July 28, 2018, 5:31 am
Tags: Action, Thriller
Users rating: ---, not rated. please login to rate.

Download Le.ultime.24.ore.2018.iTALiAN.MD.BRRip-DDLV torrent



Torrent Description

Le ultime 24 ore (2018).avi MD MP3 BRRip - iTA





.:: DETTALGLI ::.

Regia : Brian Smrz
Titolo originale: 24 Hours To Live
Anno : 2018
Nazione : Sudafrica, Hong Kong
Distribuzione : Eagle Pictures
Durata : 93 min
Data uscita in Italia : mercoledì 25 luglio 2018
Genere : Thriller
Altri dettagli su : http://www.sabanfilms.com/films/24-hours-to-live/

.:: TRAMA ::.

Dopo che un intervento chirurgico sperimentale lo riporta in vita per un solo giorno, il killer Travis Conrad ha 24 ore di tempo per collaborare con la super spia che lo ha ucciso, vendicarsi della potente organizzazione criminale che gli ha assassinato moglie e figlio e cercare redenzione per i suoi peccati.



Le.ultime.24.ore.2018.iTALiAN.MD.BRRip-DDLV

BRRip MD | AVI / kb/s | 720x304 | 1h 33mn | Italian (dubbed): MP3, 128 kb/s (2 ch)
Genre: Action | Sci-Fi | Thriller | 1.05 GB | Subs: N/A


.:: SCREENSHOTS ::.








.:: AVINAPTIC ::.

General
Complete name : A:\Le.ultime.24.ore.2018.iTALiAN.MD.BRRip-DDLV.avi
Format : AVI
Format/Info : Audio Video Interleave
Format profile : OpenDML
File size : 1.05 GiB
Duration : 1 h 33 min
Overall bit rate : 1 604 kb/s
Writing application : Lavf54.63.104

Video
ID : 0
Format : xvid
Codec ID : xvid
Duration : 1 h 33 min
Bit rate : 1 460 kb/s
Width : 700 pixels
Height : 304 pixels
Display aspect ratio : 16:9
Frame rate : 23.976 (24000/1001) FPS
Scan type : Progressive
Bits/(Pixel*Frame) : 0.278
Stream size : 977 MiB (91%)

Audio
ID : 1
Format : MPEG Audio
Format version : Version 1
Format profile : Layer 3
Mode : Joint stereo
Mode extension : MS Stereo
Codec ID : 55
Codec ID/Hint : MP3
Duration : 1 h 33 min
Bit rate mode : Constant
Bit rate : 128 kb/s
Channel(s) : 2 channels
Sampling rate : 48.0 kHz
Compression mode : Lossy
Stream size : 85.7 MiB (8%)
Alignment : Aligned on interleaves
Interleave, duration : 24 ms (0.58 video frame)


Download Le.ultime.24.ore.2018.iTALiAN.MD.BRRip-DDLV torrent


Related Torrents


Comments   (please login to add your comment!)


Home - Browse Torrents

Made with love by an Extratorrent Fan!