[MULTI] Riff-Raff (1991) 720p BluRay FLAC x264-EA | Template | Mac OS X Pour aller plus loin !
extratorrent - A Fan Made Alternative Login   |   Register
Important Information
Registrations are open now
-------------------------------------

Please click here to register with Extratorrent2 to recieve latest updates, add bookmarks and to post comments.

Friends
Friends

1) Filebebo
-------------------------------------
2) MoviesDig
-------------------------------------
3) Torrentz2.cc
-------------------------------------
4) Torrents.me

Extratorrent2 > Categories > TV > House MD Season 1 Episode 21 1080p AC3 5.1 Bluray FIXED torrent


Browse TV torrents

House MD Season 1 Episode 21 1080p AC3 5.1 Bluray FIXED torrent


Download torrent: Download House MD Season 1 Episode 21 1080p AC3 5.1 Bluray FIXED torrent Magnet link Bookmark Torrent: House MD Season 1 Episode 21 1080p AC3 5.1 Bluray FIXED   House MD Season 1 Episode 21 1080p AC3 5.1 Bluray FIXED torrent
Info hash: 05E19227D00D20B92688D21049E86510D25D83B3
Category: Categories > TV
Trackers:
View all torrent trackers >
Health:
 seeds: 0 ,  leechers: 1 |  Update >
Torrent language: English English
Total Size: 3.2 GB
Files List:
1    View torrent files >
Uploader:
Chios
Torrent added: May 24, 2016, 10:14 pm
Users rating: ---, not rated. please login to rate.

Download House MD Season 1 Episode 21 1080p AC3 5.1 Bluray FIXED torrent



Torrent Description

General
Complete name : /Volumes/LaCie/BitTorrent Complete/House M.D/S01/S01E21 Three Stories.mp4
Format : MPEG-4
Format profile : Base Media / Version 2
Codec ID : mp42
File size : 3.16 GiB
Duration : 44mn 3s
Overall bit rate : 10.3 Mbps
Encoded date : UTC 2015-09-02 10:43:43
Tagged date : UTC 2015-09-02 10:43:43
Writing application : HandBrake 0.10.2 2015061100

Video
ID : 1
Format : AVC
Format/Info : Advanced Video Codec
Format profile :
Format settings, CABAC : Yes
Format settings, ReFrames : 4 frames
Codec ID : avc1
Codec ID/Info : Advanced Video Coding
Duration : 44mn 2s
Bit rate : 9 631 Kbps
Width : 1 920 pixels
Height : 1 080 pixels
Display aspect ratio : 16:9
Frame rate mode : Variable
Frame rate : 23.976 fps
Minimum frame rate : 23.810 fps
Maximum frame rate : 24.390 fps
Color space : YUV
Chroma subsampling : 4:2:0
Bit depth : 8 bits
Scan type : Progressive
Bits/(Pixel*Frame) : 0.194
Stream size : 2.96 GiB (94%)
Writing library : x264 core 142 r2479 dd79a61
Encoding settings : cabac=1 / ref=3 / deblock=1:0:0 / analyse=0x3:0x113 / me=hex / subme=7 / psy=1 / psy_rd=1.00:0.00 / mixed_ref=1 / me_range=16 / chroma_me=1 / trellis=1 / 8x8dct=1 / cqm=0 / deadzone=21,11 / fast_pskip=1 / chroma_qp_offset=-2 / threads=6 / lookahead_threads=1 / sliced_threads=0 / nr=0 / decimate=1 / interlaced=0 / bluray_compat=0 / constrained_intra=0 / bframes=3 / b_pyramid=2 / b_adapt=1 / b_bias=0 / direct=1 / weightb=1 / open_gop=0 / weightp=2 / keyint=240 / keyint_min=24 / scenecut=40 / intra_refresh=0 / rc_lookahead=40 / rc=crf / mbtree=1 / crf=20.0 / qcomp=0.60 / qpmin=0 / qpmax=69 / qpstep=4 / vbv_maxrate=62500 / vbv_bufsize=78125 / crf_max=0.0 / nal_hrd=none / filler=0 / ip_ratio=1.40 / aq=1:1.00
Encoded date : UTC 2015-09-02 10:43:43
Tagged date : UTC 2015-09-02 10:43:43
Color primaries : BT.709
Transfer characteristics : BT.709
Matrix coefficients : BT.709

Audio
ID : 2
Format : AC-3
Format/Info : Audio Coding 3
Mode extension : CM (complete main)
Format settings, Endianness : Big
Codec ID : ac-3
Duration : 44mn 3s
Bit rate mode : Constant
Bit rate : 640 Kbps
Channel(s) : 6 channels
Channel positions : Front: L C R, Side: L R, LFE
Sampling rate : 48.0 KHz
Bit depth : 16 bits
Compression mode : Lossy
Stream size : 202 MiB (6%)
Title : Surround
Language : English
Encoded date : UTC 2015-09-02 10:43:43
Tagged date : UTC 2015-09-02 10:43:43

Menu
ID : 3
Codec ID : text
Duration : 44mn 2s
Language : English
Encoded date : UTC 2015-09-02 10:43:43
Tagged date : UTC 2015-09-02 10:43:43
Bit rate mode : CBR
00:00:00.000 : Chapter 1
00:04:09.541 : Chapter 2
00:13:07.912 : Chapter 3
00:24:33.054 : Chapter 4
00:34:16.512 : Chapter 5
00:43:26.270 : Chapter 6


Download House MD Season 1 Episode 21 1080p AC3 5.1 Bluray FIXED torrent


Related Torrents


Comments   (please login to add your comment!)


Home - Browse Torrents

Made with love by an Extratorrent Fan!